Discuz! Board

 找回密码
 注册
搜索
热搜: 活动 交友 discuz
查看: 7034|回复: 48

德沃夏克1-9交响包子分享(全部上传完毕,大家蛇年大吉)

[复制链接]
发表于 2013-2-1 14:40 | 显示全部楼层 |阅读模式
本帖最后由 kuma 于 2013-2-13 14:10 编辑

在论坛混了这么久深受各位前辈们的洗礼,在听完前辈们分享的头版罗西尼以及 24bit96KHz HDAudio:Dvorak Symphony No. 9 之后身陷古典中久久难以自拔,一致购买了这套小包子伦敦DECCA出品的,虽然不能和硬总的SACD以及LYMAN666的24bit96KHz HDAudio的比拟,但是不同乐团以及不同指挥的演绎,同样的曲子确实有很大的差异,原来古典还有如此变幻如此灵活,初烧被无限的震撼了,以前老是泡在大家对器材的品论中,但是却忽略了音乐本身的内容,现在赶上CD的末班车再好好感慨一下夕阳温暖的余晖吧。
捕获1.JPG
捕获7.JPG 捕获6.JPG
捕获5.JPG
捕获4.JPG 捕获3.JPG
  



今天先上最著名的No. 09 FROM THE NEW WORLD
迅雷快传:http://kuai.xunlei.com/d/zlcnAQLWIgADIQtR8f6
捕获8.JPG
===============================
更新CD5:Symphony No.7 in D minor & Symphony No.8(英吉利) in G majior 个人觉得7和8很华丽相比第9没有其那么磅礴的气势,但是也非常好听的。

Exact Audio Copy V0.99 prebeta 5 from 4. May 2009
EAC 抓取日志文件从2. 二月 2013, 9:16
未知艺术家 / 未知标题
使用驱动器  :TSSTcorpCDDVDW TS-L633B   Adapter: 1  ID: 0
读取模式 : 暴发
读取偏移校正                   : 6
读取 Lead-In 和 Lead-Out       : 否
用静音填充抓取中丢失偏移的采样 : 是
去除首尾静音块                 : 否
在 CRC 计算中使用了空样本      : 否
已用接口                       : Win NT 及 2000 本地 Win32 接口
所用输出格式 : 内部 WAV 函数
样本格式     : 44.100 Hz;16 Bit;立体声

被抓轨 CD 的 TOC
     音轨 |   开始   |   长度   | 起始扇区 | 结尾扇区
    --------------------------------------------------
       1  |  0:00.33 | 10:21.10 |      33  |   46617  
       2  | 10:21.43 | 10:10.17 |   46618  |   92384  
       3  | 20:31.60 |  7:23.05 |   92385  |  125614  
       4  | 27:54.65 |  9:27.43 |  125615  |  168182  
       5  | 37:22.33 | 10:03.07 |  168183  |  213414  
       6  | 47:25.40 | 10:02.03 |  213415  |  258567  
       7  | 57:27.43 |  6:04.62 |  258568  |  285929  
       8  | 63:32.30 |  9:00.45 |  285930  |  326474  

范围状态及错误
已选择范围
     文件名 C:\Users\philosophe\Documents\Symphony No.7 in D minor & Symphony No.8 in G majior.wav
     计时问题 0:11:54
     计时问题 1:05:38
     峰值电平 99.8 %
     测试 CRC 4CD0F9FF
     复制 CRC 4CD0F9FF
     复制结束
没有错误发生

AccurateRip 概要

音轨  1  已正确抓取 (确认 3)  [BDE418E6]
音轨  2  已正确抓取 (确认 3)  [C379402F]
音轨  3  已正确抓取 (确认 3)  [2B31422B]
音轨  4  已正确抓取 (确认 3)  [C7EE8287]
音轨  5  已正确抓取 (确认 3)  [4B0A36BD]
音轨  6  已正确抓取 (确认 3)  [7D19F281]
音轨  7  已正确抓取 (确认 3)  [F4E09F59]
音轨  8  已正确抓取 (确认 3)  [4D70E271]

所有音轨已被精确抓取
状态报告结尾

cd5.JPG
迅雷快传回复可见哈哈·····
游客,如果您要查看本帖隐藏内容请回复


================================================

更新CD4:Dvorak, Antonin - Symphonie Nr. 4 - 6 (Kertesz, London Symphony Orch.)
CD4.JPG
Exact Audio Copy V0.99 prebeta 5 from 4. May 2009
EAC 抓取日志文件从3. 二月 2013, 7:39
Dvorak, Antonin / Symphonie Nr. 4 - 6 (Kertesz, London Symphony Orch.)
使用驱动器  :TSSTcorpCDDVDW TS-L633B   Adapter: 1  ID: 0
读取模式 : 暴发
读取偏移校正                   : 6
读取 Lead-In 和 Lead-Out       : 否
用静音填充抓取中丢失偏移的采样 : 是
去除首尾静音块                 : 否
在 CRC 计算中使用了空样本      : 否
已用接口                       : Win NT 及 2000 本地 Win32 接口
所用输出格式 : 内部 WAV 函数
样本格式     : 44.100 Hz;16 Bit;立体声

被抓轨 CD 的 TOC
     音轨 |   开始   |   长度   | 起始扇区 | 结尾扇区
    --------------------------------------------------
       1  |  0:00.33 | 12:34.60 |      33  |   56642  
       2  | 12:35.18 | 15:55.17 |   56643  |  128284  
       3  | 28:30.35 | 11:34.38 |  128285  |  180372  
       4  | 40:04.73 |  7:55.12 |  180373  |  216009  
       5  | 48:00.10 | 10:30.45 |  216010  |  263304  
       6  | 58:30.55 | 13:34.53 |  263305  |  324407  

范围状态及错误
已选择范围
     文件名 C:\Users\philosophe\Documents\Dvorak, Antonin - Symphonie Nr. 4 - 6 (Kertesz, London Symphony Orch.).wav
     峰值电平 99.6 %
     测试 CRC D020C186
     复制 CRC D020C186
     复制成功
没有错误发生

AccurateRip 概要

音轨  1  已正确抓取 (确认 10)  [9B854194]
音轨  2  已正确抓取 (确认 10)  [ADECFF5E]
音轨  3  已正确抓取 (确认 10)  [7A06A983]
音轨  4  已正确抓取 (确认 10)  [53950744]
音轨  5  已正确抓取 (确认 10)  [069760E4]
音轨  6  已正确抓取 (确认 10)  [5F99E4A7]

所有音轨已被精确抓取
状态报告结尾

百度云盘
游客,如果您要查看本帖隐藏内容请回复


======================================================

更新CD3:Dvorak,  Antonin - Symphonie Nr. 4 - 6 (Kertesz, London Symphony Orch.) 接CD4 NO5 CONCLUTION
CD3.JPG
百度云:
游客,如果您要查看本帖隐藏内容请回复


======================================================

更新CD2:Symphonie Nr. 1 - 3 (Kertesz, London Symphony Orch.)
CD2.JPG
百度云:
游客,如果您要查看本帖隐藏内容请回复

==================================================
更新CD1 至此1-9全部上传完毕,请各位及时下载,祝大家蛇年大吉,财源广进,身体健康,万事如意!
CD1.JPG
百度云:
游客,如果您要查看本帖隐藏内容请回复

评分

1

查看全部评分

发表于 2013-2-1 18:14 | 显示全部楼层
谢谢分享,但图都挂了……
 楼主| 发表于 2013-2-1 19:34 | 显示全部楼层
我可以看到图啊·····哎·····看来还是得吧图压缩一下再编辑一下了
发表于 2013-2-1 23:33 | 显示全部楼层
这就是最好的德交了,O(∩_∩)O谢谢再下。
发表于 2013-2-2 00:40 | 显示全部楼层
谢谢分享,科尔特斯和库布里克都很喜欢
发表于 2013-2-2 17:32 | 显示全部楼层
谢谢分享德交
发表于 2013-2-2 20:50 | 显示全部楼层
谢谢,辛苦了!
发表于 2013-2-2 21:48 | 显示全部楼层
谢谢正好借机凑齐
发表于 2013-2-4 23:33 | 显示全部楼层
迅雷...俺还是喜欢度盘
发表于 2013-2-5 03:17 | 显示全部楼层
kankan o  xiexie
您需要登录后才可以回帖 登录 | 注册

本版积分规则

小黑屋|手机版|Archiver|中国立体声 ( 辽ICP备11019170号-1

GMT+8, 2018-12-10 19:33 , Processed in 0.084054 second(s), 20 queries .

Powered by Discuz! X3.2

© 2001-2013 Comsenz Inc.

快速回复 返回顶部 返回列表